#TITLE:Link;
#SUBTITLE:- Fullmetal Alchemist Movie - Conqueror of Shambala;
#ARTIST:L'arc~en~Ciel;
#TITLETRANSLIT:;
#SUBTITLETRANSLIT:;
#ARTISTTRANSLIT:;
#CREDIT:;
#BANNER:Link Banner.png;
#BACKGROUND:Link Wallpaper.jpg;
#LYRICSPATH:Link.lrc;
#CDTITLE:link-cdtitle.png;
#MUSIC:Link.mp3;
#OFFSET:-0.040;
#SAMPLESTART:61.948;
#SAMPLELENGTH:26.380;
#SELECTABLE:YES;
#BPMS:0.000=152.020;
#STOPS:;
#BGCHANGES:0.000=Link movie.avi=1.000=1=0=0,
651.500=Link Wallpaper.jpg=1.000=1=0=1,
99999=-nosongbg-=1.000=0=0=0 // don't automatically add -songbackground-
;
// cache tags:
#FIRSTBEAT:1.000;
#LASTBEAT:706.000;
#SONGFILENAME:songs/Otaku's Dream 3rd Anime Mix/[naruttebayo] Link - FMA/Link.sm;
#HASMUSIC:1;
#HASBANNER:1;
#MUSICLENGTH:288.371;
// end cache tags

//---------------dance-single - Blank----------------
#NOTES:
     dance-single:
     Blank:
     Challenge:
     12:
     0.918,1.000,1.000,0.503,0.368,1221.000,487.000,145.000,0.000,4.000:

0000
0000
0102
0000
0010
0100
1000
0100
,
0013
0000
0120
0000
0100
1000
0100
0001
,
1030
0000
2000
0000
0100
0010
0001
0010
,
3100
0000
0000
0000
0000
0000
0000
0000
1001
0000
0000
0000
0000
0000
0000
0000
0110
0000
0000
0000
0000
0000
0000
0000
1000
0100
0001
0100
1000
0100
1001
0010
,
1000
0010
0001
0010
1000
0100
1000
0100
0010
0001
0000
0000
0000
0000
0000
0000
0000
0000
0000
0000
0000
0000
0000
0000
0000
0000
0000
0000
1002
0000
0000
0000
,
0000
0000
0000
0000
1000
0100
0010
0100
1003
0000
0000
0000
0000
0000
0000
0000
0000
0000
0000
0000
0110
0000
0000
0000
0000
0000
0000
0000
1100
0000
0000
0000
,
0000
0000
0011
0000
0202
0000
0000
0000
0000
0000
0000
0303
0000
0000
0000
0000
,
1100
0000
0110
0000
0000
0011
0000
0000
,
0110
0000
0000
0000
0000
0000
0000
0000
0000
0000
0000
0000
0010
0100
0010
0100
0010
0100
0010
0100
0010
0100
0000
0000
0000
1000
0001
1000
0001
1000
0001
1000
,
0001
0000
0000
0000
0000
0000
0000
0000
0000
0000
0000
0000
1000
0100
1000
0100
1000
0100
1000
0100
1000
0100
0000
0000
0000
0001
0010
0001
0010
0001
0010
0001
,
0010
0000
0000
0000
0000
0000
0000
0000
0000
0000
0000
0000
1000
0010
1000
0010
1000
0010
1000
0010
1000
0010
0000
0000
0100
0001
0100
0001
0100
0001
0100
0001
,
0100
0000
0000
0000
0000
0000
0000
0000
0100
0000
0000
0000
0001
0000
0000
0000
1000
0000
0000
0000
0010
0000
0000
0000
1000
0100
0010
0001
1000
0000
0000
0000
,
0001
0100
1000
0100
0010
0000
0000
0000
0000
0000
0000
0000
0000
0000
0000
0000
1100
0000
0000
0000
0000
0000
0000
0000
0110
0000
0000
0000
0101
0000
0000
0000
,
0010
2100
0000
0000
3010
1010
0000
0101
,
0000
0110
0010
1010
0110
1100
0010
1010
,
0001
0210
0000
0000
0310
1100
0000
0110
,
0000
0110
1000
0011
0100
0011
0001
1100
,
0011
1002
0000
0000
0013
0101
0000
0110
,
0000
0011
1010
0101
1001
0110
0110
0101
,
1010
0101
1010
0011
1100
1100
0011
1100
,
0110
0110
0011
0000
0110
0000
0011
1100
,
1100
0012
0000
0000
1003
1001
0000
1010
,
0000
0110
0000
0100
0110
1010
0011
0010
,
0110
1200
0000
0000
1300
0110
0000
0201
,
0000
0301
0000
1010
0110
0000
0101
1010
,
0110
0012
0000
0000
0103
0110
0000
1100
,
0000
0110
0011
1100
0110
0100
0110
0011
,
0000
1010
2001
0000
3010
0110
0000
0001
,
0000
1000
1010
0100
0011
0100
1100
0010
,
0110
0001
2010
0000
3001
1010
0000
1001
,
0000
1010
0001
0101
1000
0000
1001
0010
,
0110
0001
1010
0000
0001
0110
0000
1001
,
0000
0101
0010
0101
0010
1010
0120
0000
,
1030
0011
0000
1010
0102
0000
2003
0000
,
3002
2000
0003
0000
3001
0000
0011
1100
,
1100
0012
0000
1003
0000
0000
1001
1000
,
1002
0000
0103
0000
0110
0110
0000
0011
,
0000
2200
0000
3300
0000
0000
0000
1001
,
1001
0000
0000
0000
0000
0000
0000
0000
0001
0010
1100
0000
0000
0000
0000
0000
0000
0000
0000
0000
1000
0100
0011
0000
0000
0000
0000
0000
0000
0000
0000
0000
,
0001
0010
1100
0000
0000
0000
0000
0000
2001
0000
0000
0000
0000
0000
0000
0000
3200
0000
0000
0000
0000
0000
0000
0000
0302
0000
0000
0000
0000
0000
0000
0000
,
2000
0000
0003
0000
0100
3010
0001
0000
0000
0000
0012
0000
0000
0000
1000
0100
,
0010
0003
0000
0000
0110
0000
0000
0000
1100
0000
0000
0000
0110
0000
0000
0000
,
0012
0000
0000
0000
1003
0000
0101
0000
0000
0000
0102
0000
0000
0000
0010
0100
,
1003
0000
0000
0000
0220
0000
0000
0000
0330
0000
2002
0000
0000
3003
0000
0000
,
1000
0001
1000
0001
0100
0010
1000
0000
,
1000
0000
0010
0000
0210
0000
0000
0000
0000
0000
0001
0300
0000
0000
2002
0000
,
0000
0000
0003
0000
0010
0000
3100
0000
1001
0000
0000
0000
1000
0100
0010
0100
,
0001
0100
1000
0010
0100
0000
0000
0000
1100
0000
0000
0000
0110
0000
0000
0000
,
0011
0000
0000
0000
1010
0000
0200
0000
0010
0000
0302
0000
0000
0000
1000
0100
,
0013
0000
0002
2003
,
0020
3000
0230
0000
0000
0320
0000
0000
,
2030
0000
0000
0000
3102
0000
0000
0000
0010
0100
0013
0000
0000
0000
0010
0000
,
0110
0001
1100
0100
1010
0100
1010
0100
,
0101
0010
0101
0000
0000
1000
1100
0001
,
1010
0100
0101
0010
0110
1000
1001
0010
,
0110
0000
0010
1100
0011
1000
1100
1100
,
0011
0011
1100
1100
0100
1010
0001
0101
,
0010
0101
0010
0101
0010
1010
0100
1010
,
0100
0000
0000
0000
1010
0000
0000
0000
0100
0000
0000
0000
0110
0000
0000
0000
1001
0000
0000
0000
0110
0000
0000
0000
1000
0100
0010
0100
1000
0000
0000
0000
,
0001
0100
0010
0100
0001
0000
0000
0000
0010
0000
0000
0000
0010
0000
0000
0000
0100
0000
0000
0000
0010
0000
0000
0000
1100
0000
0000
0000
0010
0000
0000
0000
,
0110
0010
0011
0100
1010
0100
0011
0100
,
1100
0010
0101
0010
1100
0100
1001
0110
,
1001
1100
0011
0011
1100
0100
0110
1000
,
1001
0100
0120
0000
1030
0000
1001
1100
,
0001
1020
0000
0000
0031
0011
0000
1100
,
0000
1001
0001
0011
1001
1010
0001
0011
,
0100
2001
0000
0000
3001
1010
0000
1001
,
0000
1001
0010
0101
1000
0101
0100
1010
,
0101
0210
0000
0000
0301
1100
0000
1001
,
0000
0101
0011
1100
0110
1001
1001
1100
,
0011
1100
0011
0101
1010
1010
0101
1010
,
0020
0000
1000
0001
0130
0000
0000
0000
1001
0000
0000
0000
0101
0000
1010
0000
,
1010
0201
0000
0000
0310
0110
0000
0011
,
0000
1001
0000
1000
1001
0011
0101
0001
,
1001
2010
0000
0000
3010
1001
0000
2100
,
0000
3100
0000
0011
1001
0000
1100
0011
,
1001
0201
0000
0000
1300
1001
0000
1010
,
0000
1001
0101
1010
1001
1000
1001
0101
,
0000
0011
0120
0000
0031
1001
0000
0100
,
0000
0010
0011
1000
0101
1000
1010
0001
,
1001
0100
0021
0000
0130
0011
0000
0110
,
0000
0011
0100
1100
0010
0000
0110
0001
,
1001
0100
0011
0000
0100
1001
0000
0110
,
0000
1100
0001
1100
0001
0011
1002
0000
,
0013
0101
0000
0011
1200
0000
0320
0000
,
0230
0020
0300
0000
0130
0000
0101
1010
,
1010
0201
0000
0310
0000
0000
0110
0010
,
0210
0000
1300
0000
1001
1001
0000
0101
,
0000
2020
0000
3030
0000
0000
0000
0110
,
0110
0000
0000
0000
0000
0000
0000
0000
0001
0010
1100
0000
0000
0000
0000
0000
0000
0000
0000
0000
1000
0100
0011
0000
0000
0000
0000
0000
0000
0000
0000
0000
,
0001
0010
1100
0000
0000
0000
0000
0000
0120
0000
0000
0000
0000
0000
0000
0000
2030
0000
0000
0000
0000
0000
0000
0000
3200
0000
0000
0000
0000
0000
0000
0000
,
0020
0000
0300
0000
1000
0031
0100
0000
0000
0000
0201
0000
0000
0000
0010
1000
,
0001
0300
0000
0000
1001
0000
0000
0000
1010
0000
0000
0000
1001
0000
0000
0000
,
0201
0000
0000
0000
0310
0000
1100
0000
0000
0000
1200
0000
0000
0000
0001
1000
,
0310
0000
0000
0000
2002
0000
0000
0000
3003
0000
0220
0000
0000
0330
0000
0000
,
0010
0100
0010
0100
1000
0001
0010
0000
,
0010
0000
0001
0000
2001
0000
0000
0000
0000
0000
0100
3000
0000
0000
0220
0000
,
0000
0000
0300
0000
0001
0000
1030
0000
0110
0000
0000
0000
0010
1000
0001
1000
,
0100
1000
0010
0001
1000
0000
0000
0000
1010
0000
0000
0000
1001
0000
0000
0000
,
0101
0000
0000
0000
0011
0000
2000
0000
0001
0000
3200
0000
0000
0000
0010
1000
,
0301
0000
0200
0320
,
0002
0030
2003
0000
0000
3002
0000
0000
,
0023
0000
0000
0000
1230
0000
0000
0000
0001
1000
0301
0000
0000
0000
0001
0000
,
1001
0100
1010
1000
0011
1000
0011
1000
,
1100
0001
1100
0000
0000
0010
1010
0100
,
0011
1000
1100
0001
1001
0010
0110
0001
,
1001
0000
0001
1010
0101
0010
1010
1010
,
0101
0101
1010
1010
1000
0011
0100
1100
,
0001
1100
0001
1100
0001
0011
1000
0011
,
1000
0000
0000
0000
0011
0000
0000
0000
1000
0000
0000
0000
1001
0000
0000
0000
0110
0000
0000
0000
1001
0000
0000
0000
0010
1000
0001
1000
0010
0000
0000
0000
,
0100
1000
0001
1000
0100
0000
0000
0000
0001
0000
0000
0000
0001
0000
0000
0000
1000
0000
0000
0000
0001
0000
0000
0000
1010
0000
0000
0000
0001
0000
0000
0000
,
1001
0001
0101
1000
0011
1000
0101
1000
,
1010
0001
1100
0001
1010
1000
0110
1001
,
0110
1010
0101
0101
1010
1000
1001
0010
,
0110
0000
1000
0000
1002
0000
0000
0000
0013
2000
0100
0000
0000
0000
3000
0000
,
0000
0100
0011
0000
0000
0110
0000
1001
,
0000
0110
1000
0000
0100
0011
0000
0110
,
0100
1100
0010
0101
0100
1010
0010
1001
,
0000
0000
0000
0000
0011
0000
0100
1000
0100
0000
0110
0000
0010
0100
0010
0000
,
1010
0000
0100
1000
0100
0000
0101
0000
0100
0001
0100
0000
1100
0000
0000
0000
,
1100
0000
2100
0000
0001
0001
3001
0000
,
1100
0000
1100
0101
0010
0101
0010
0101
,
1010
0000
1010
0000
0011
1100
1100
0011
,
1001
0100
0110
0100
1010
0010
0101
1000
,
0101
0010
2020
0000
3030
0022
0000
0033
,
0000
2000
0002
3003
0110
0000
0000
1001
,
0000
0000
1001
0110
1001
0000
0110
1001
,
0110
0000
0000
0000
0000
0000
0000
0000
1100
0000
0000
0000
0110
0000
0000
0000
0011
0000
0000
0000
0000
0000
0000
0000
0001
0010
0100
1000
0001
1000
0100
0010
,
0001
0010
0100
0001
1000
0000
0000
0000
2000
0000
0000
0000
3000
0000
0000
0000
0200
0000
0000
0000
0300
0000
0000
0000
0020
0000
0000
0000
0000
0000
0000
0000
,
0031
0000
0000
0000
0100
0000
0010
0000
0000
0000
0120
0000
0000
0000
1000
0100
,
0031
0000
0110
0100
1100
0000
0011
0000
,
1010
0000
0000
0000
0101
0000
0000
0000
0010
0000
0110
0000
0000
0000
1000
0100
,
1000
0000
0000
0000
0000
0000
0000
0000
1000
0000
0000
0000
1000
0100
1000
0100
1000
0100
1000
0100
1000
0100
0000
0000
0000
0001
0010
0001
0010
0001
0010
0001
,
0010
0000
0000
0000
0000
0000
0000
0000
0000
0000
0000
0000
1000
0001
1000
0001
1000
0001
1000
0001
1000
0001
0000
0000
0000
0010
0100
0010
0100
0010
0100
0010
,
0100
1000
0100
0000
0000
0100
0000
0001
,
0000
0102
0000
0010
0100
1000
0100
0010
,
0103
0000
0000
0000
0000
1000
0100
0010
0002
0000
0000
0000
0000
0000
0000
0000
0203
0000
0000
0000
0000
0000
0000
0000
0320
0000
0000
0000
0000
0000
0000
0000
,
1030
0000
0000
0000
1001
0000
1001
0000
0000
0000
0200
0000
0000
0000
0010
0001
,
0310
0000
0200
2300
,
0200
3000
0001
0300
0000
0220
0000
0330
,
1001
0000
1001
0000
0000
0110
0000
1000
,
0100
0000
1000
0000
0001
0000
0100
0010
0100
0000
0100
0000
0010
0000
1000
0000
,
0100
1000
0002
0000
0000
0013
0000
1000
,
0001
0000
0000
0000
1000
0100
1000
0010
1000
0100
0100
1000
0100
0010
0001
0010
0001
0010
0001
0010
0100
0010
0100
0010
0100
1000
0100
1000
0100
0000
0000
0000
,
0101
0101
0101
1020
,
0031
0000
0000
0000
2000
0000
0200
0000
3000
0000
0002
0300
0000
0000
1000
0100
,
1003
0110
0110
0110
,
0110
0000
0000
0000
1000
0000
0100
0000
0000
0000
0100
0000
0000
0000
1000
0010
,
0020
0000
0000
0000
0000
0000
0000
0000
0130
0000
0000
0000
0000
1000
0100
0010
0100
1000
0100
0010
1000
0100
0000
0000
0000
0001
0010
0100
0010
0100
0010
0100
,
0001
0000
0000
0000
0000
0000
0000
0000
0000
0000
0000
1000
0001
1000
0001
1000
0001
1000
0001
1000
0001
1000
0000
0000
0000
0100
0010
0100
0010
0100
0010
0100
,
0010
0000
0200
0000
0000
2300
0000
3020
,
0002
0030
0203
0000
0300
0000
1000
0010
,
1001
0000
0102
0000
0020
0003
2030
0000
,
3002
0000
0203
2000
0300
3002
0003
0120
,
2000
0030
3002
0000
0213
0000
0001
0300
,
0012
0000
2000
0003
0000
3201
0000
0000
,
0301
0000
0110
0000
0000
1100
0001
1010
,
0010
0110
0010
0000
1010
0001
0102
0000
,
0013
0201
1000
0000
0300
0011
1000
0101
,
0100
1010
1000
0101
0010
0101
1000
0101
,
0100
0110
1000
0011
0100
1010
0001
1010
,
0010
0101
0001
1100
0010
1100
0001
1010
,
0001
1001
0010
0110
0010
0000
1000
1100
,
0100
0000
0000
0000
0011
0000
0000
0000
0100
0000
0000
0000
0110
0000
0000
0000
0100
0000
0000
0000
1000
0000
0000
0000
0000
1000
0100
0010
0100
1000
0000
0000
,
0000
0001
0010
0100
0010
0001
0000
0000
0100
0000
0000
0000
1010
0000
0000
0000
0100
0000
0000
0000
1010
0000
0000
0000
0010
0000
0000
0000
0101
0000
0000
0000
,
0010
0101
1001
0110
1001
0100
0101
0010
,
1010
0100
0011
0100
2010
3001
0000
1010
,
0100
0110
0001
1000
0010
0011
0000
0001
,
0010
0100
2000
0000
3002
0000
0103
0110
,
1000
0101
1000
1001
0100
0110
0001
0101
,
0010
0101
0010
0101
0100
1010
0100
1010
,
0100
0000
0000
0000
1010
0000
0000
0000
1001
0000
0000
0000
0110
0000
0000
0000
0110
0000
0000
0000
1001
0000
0000
0000
0010
0100
0010
0100
0010
0000
0000
0000
,
1000
0001
1000
0001
1000
0000
0000
0000
1000
0000
0000
0000
0100
0000
0000
0000
0010
0000
0000
0000
0100
0000
0000
0000
1000
0000
0000
0000
0100
0000
0000
0000
,
0010
0001
1000
0001
0010
0100
1000
0100
,
1000
0100
0010
0100
0010
0100
0010
0100
,
0010
0001
0010
0100
1000
0100
0000
0010
,
0001
1000
2002
0000
3003
0000
0000
0000
;
